EMTP-Raws

BDRip.org Make your Vision.

@sadouxi5 年前

01/8
19:25
未分類

[EAC][1998]中华人民共和国 国歌 CD(WAV+CUE+LOG+BK)


【发布者的话】

 

今年第一个资源。

这东西我觉得不需要太多的介绍,地球人都知道这歌。

1992年于北京录音,1998年香港拿索斯国际(远东)唱片旗下厂牌MARCO POLO发行

由日本天龙公司20BIT数码器材灌录,采用24K纯金压片制作。

香港《发烧音响》杂志评为最优秀录音的国歌CD。

【下载地址】

链接:https://pan.baidu.com/s/1SW1dr3LGwJnlJ5LulYryhA
提取码:oj8k

 

【唱片信息】

 

*1 义勇军进行曲——中华人民共和国国歌 National Anthem of the People’s Republic of China

**2 义勇军进行曲——中华人民共和国国歌(军乐队版本 演奏一遍) National Anthem of the People’s Republic of China(Military Band Version – no repeat)

**3 义勇军进行曲——中华人民共和国国歌(军乐队版本 演奏两遍) National Anthem of the People’s Republic of China(Military Band Version – repeat once)

***4 义勇军进行曲——中华人民共和国国歌(管弦乐队版本 演奏一遍) National Anthem of the People’s Republic of China(Orchestral Version – no repeat)

***5 义勇军进行曲——中华人民共和国国歌(管弦乐队版本 演奏两遍) National Anthem of the People’s Republic of China(Orchestral Version – repeat once)

6 国际歌 Internationale

7 东方红 The East is Red

8 我的祖国 My Motherland

9 南泥湾 Nanni Bay

10 北风吹 The North Wind is Blowing

11 十五的月亮 The Full Moon

12 旗正飘飘 The Banners are Fluttering

13 洪湖水浪打浪 The Spraying Hung Hu

14 歌唱祖国 In Praise of our Motherland

 

*上海乐团管弦乐队及合唱团 曹丁 指挥 Shanghai Philharmonic Orchestra & Chorus / Cao Ding, Conductor

** 中国人民解放军军乐团 The Military Band of the Chinese People’s Libration Army

***上海交响乐团 陈燮阳 指挥 Shanghai Symphony Orchestra / Chen Xie-Yang, Conductor

灌录制式:DDD

1992年北京录音

24K黄金CD由日本天龙压制

 

Exact Audio Copy V1.1 from 23. June 2015

EAC 抓取日志文件从26. 十二月 2016, 9:19

中國人民解放軍軍樂團/上海交響樂團 / 中華人民共和國國歌

使用驱动器 :OPTIARC DVD-ROM DDU1681S Adapter: 1 ID: 0

读取模式 : 可靠Secure
使用精确流 : 是
清空音频缓存 : 否
使用 C2 指示器 : 是

读取偏移校正: : 6
读取 Lead-In 和 Lead-Out : 否
用静音填充抓取中丢失偏移的采样 : 是
去除首尾静音块 : 否
在CRC 计算中使用了空样本 : 是
已用接口 : Win NT 及 2000 本地 Win32 接口

所用输出模式: : 内部 WAV 函数
样本格式 : 44.100 Hz; 16 Bit; 立体声
已抓取 CD 的 TOC

音轨 | 起始 | 长度 | 起始扇区 | 结束扇区
——————————————–
1 | 0:00.00 | 1:02.53 | 0 | 4702
2 | 1:02.53 | 0:55.07 | 4703 | 8834
3 | 1:57.60 | 1:32.70 | 8835 | 15804
4 | 3:30.55 | 0:56.03 | 15805 | 20007
5 | 4:26.58 | 1:39.15 | 20008 | 27447
6 | 6:05.73 | 5:50.35 | 27448 | 53732
7 | 11:56.33 | 4:29.00 | 53733 | 73907
8 | 16:25.33 | 4:56.32 | 73908 | 96139
9 | 21:21.65 | 3:02.33 | 96140 | 109822
10 | 24:24.23 | 2:57.55 | 109823 | 123152
11 | 27:22.03 | 4:28.17 | 123153 | 143269
12 | 31:50.20 | 3:21.58 | 143270 | 158402
13 | 35:12.03 | 4:00.52 | 158403 | 176454
14 | 39:12.55 | 3:52.63 | 176455 | 193917
范围状态及错误

已选择范围

文件名 C:\Users\南\Documents\中國人民解放軍軍樂團,上海交響樂團 – 中華人民共和國國歌.wav

峰值电平 98.6 %
抓取速度 8.4 X
范围质量 100.0 %
测试 CRC 9D646D11
复制 CRC 9D646D11
复制成功

没有错误发生
AccurateRip 摘要

音轨 1 精确地校准抓取 1) [54181AF3] (AR v2)
音轨 2 精确地校准抓取 1) [BD2C5732] (AR v2)
音轨 3 精确地校准抓取 1) [88E9C754] (AR v2)
音轨 4 精确地校准抓取 1) [653DD9BC] (AR v2)
音轨 5 精确地校准抓取 1) [1C4B2D81] (AR v2)
音轨 6 精确地校准抓取 1) [CBD9E7CC] (AR v2)
音轨 7 精确地校准抓取 1) [69148CF3] (AR v2)
音轨 8 精确地校准抓取 1) [9D8ECDFA] (AR v2)
音轨 9 精确地校准抓取 1) [2A4CFFC5] (AR v2)
音轨 10 精确地校准抓取 1) [86401074] (AR v2)
音轨 11 精确地校准抓取 1) [146573D1] (AR v2)
音轨 12 精确地校准抓取 1) [9720A7AE] (AR v2)
音轨 13 精确地校准抓取 1) [5DCF1DDE] (AR v2)
音轨 14 精确地校准抓取 1) [B3943979] (AR v2)

所有音轨精确校准抓取

状态报告结尾

—- CUETools DB Plugin V2.1.6

[CTDB TOCID: eE4KXcA51oa7JL0CFrJvCB.FRYM-] found
Submit result: eE4KXcA51oa7JL0CFrJvCB.FRYM- has been confirmed
Track | CTDB Status
1 | (9/9) Accurately ripped
2 | (9/9) Accurately ripped
3 | (9/9) Accurately ripped
4 | (9/9) Accurately ripped
5 | (9/9) Accurately ripped
6 | (9/9) Accurately ripped
7 | (9/9) Accurately ripped
8 | (9/9) Accurately ripped
9 | (9/9) Accurately ripped
10 | (9/9) Accurately ripped
11 | (9/9) Accurately ripped
12 | (9/9) Accurately ripped
13 | (9/9) Accurately ripped
14 | (9/9) Accurately ripped
==== 记录校验日志 C7DEFC851B030DD79EC37E10F8E1AF096093013837E81CDA1C3252535BECB6C3 ====

 

[EAC][1998]中华人民共和国 国歌 CD(WAV+CUE+LOG+BK)