EMTP-Raws

BDRip.org Make your Vision.

@sadouxi5 年前

01/18
18:57
未分類

アニソン奇跡の夜~KING SUPER LIVE 2015~ 全47首+特典 BDrip 1080p Hi10P

 

【发布者的话】

 

原本我有一个习惯就是在副标题里注明谁可以无断转载,但是后来我发现这个列表变得越来越长,从最开始的U2 Exclusive变成U2/ADC/GDPT/MTEAM/CMCT等……

鉴于请求转载的人士越来越多,甚至还出现了我在其他站发布资源因为有人举报禁转所以被取消置顶的这种哭笑不得的事情,所以对今后本组的转载规则做出变动。

取消无断授权,变为未经允许禁止转载。敬请理解。

 

视频使用x264_tmod_10bit编码器编码,音频为日语原声FLAC 2.0 自带Chapter

【下载地址】

链接:http://pan.baidu.com/s/1ntUFPNV 密码:0c0z

解压密码EMTP-Raws

 

 

【影片信息】

出演アーティスト

angela / 上坂すみれ / every♥ing! / 奥井雅美 / 小倉 唯 / 陰陽座 / カスタマイZ / かなでももこ / 喜多村英梨 / 小松未可子
佐藤聡美 / 高橋洋子 / 田村ゆかり / 林原めぐみ / 保志総一朗 / 堀江由衣 / 松澤由美 / 水樹奈々 / 宮野真守
森口博子 / ゆいかおり / 米倉千尋(五十音順)

収録内容

KING SUPER LIVE 2015
2015.6.21 SAITAMA SUPER ARENA

『残酷な天使のテーゼ』高橋洋子
『魂のルフラン』高橋洋子
『ヒカリ』堀江由衣
『Stay With Me』堀江由衣
『スクランブル』堀江由衣
『嵐の中で輝いて』米倉千尋
『WILL』米倉千尋
『ミライナイト』佐藤聡美
『一筋の光明ひかり』カスタマイZ
『Our Steady Boy』ゆいかおり
『赤いメモリーズをあなたに』かなでももこ
『Black Holy』小松未可子
『カラフルストーリー』every♥ing!
『七つの海よりキミの海』上坂すみれ
『Baby Sweet Berry Love』小倉 唯
『Charming Do!』小倉 唯
『YOU GET TO BURNING』松澤由美
『Dearest』松澤由美
『Shining Tears』保志総一朗
『Give a reason』林原めぐみ
『Northern Lights』林原めぐみ
『JUST BEGUN』林原めぐみ
『甲賀忍法帖』陰陽座
『凛麗』喜多村英梨
『Happy Girl』喜多村英梨
『輪舞-revolution』奥井雅美
『朱-AKA-』奥井雅美
『only one, No.1』奥井雅美
『BREAK IT!』宮野真守
『カノン』宮野真守
『シャイン』宮野真守
『Little Wish ~first step~』田村ゆかり
『Pleasure treasure』田村ゆかり
『Fantastic future』田村ゆかり
『シドニア』angela
『KINGS』angela
『Shangri-La』angela
『水の星へ愛をこめて』森口博子
『ETERNAL WIND~ほほえみは光る風の中~』森口博子
『Synchrogazer』水樹奈々
『禁断のレジスタンス』水樹奈々
『ETERNAL BLAZE』水樹奈々
『ハッピー☆マテリアル』上坂すみれ、佐藤聡美、every♥ing!、ゆいかおり、かなでももこ
『For フルーツバスケット』田村ゆかり、堀江由衣、喜多村英梨、小松未可子
『翔べ!ガンダム』保志総一朗、宮野真守、KATSU(angela)
『JUST COMMUNICATION』森口博子、松澤由美、米倉千尋、水樹奈々、atsuko(angela)
『Get along』出演者一同

映像特典

『YAHHO!!』堀江由衣
『Raise』小倉 唯
『Over Soul』林原めぐみ
『Birth』喜多村英梨
『そうだ、ぜったい。』奥井雅美
『オルフェ』宮野真守

『W:Wonder tale』田村ゆかり
『騎士行進曲』angela
『イグジスト』angela
『明日へのbrilliant road』angela
『終末のラブソング』水樹奈々
『RHYTHM EMOTION』森口博子、松澤由美、米倉千尋、水樹奈々、atsuko(angela)

 

【Mediainfo】

Video
ID                             : 1
Format                         : AVC
Format/Info                    : Advanced Video Codec
Format profile                 : High 10@L5
Format settings, CABAC         : Yes
Format settings, ReFrames      : 7 frames
Codec ID                       : V_MPEG4/ISO/AVC
Duration                       : 3h 10mn
Bit rate                       : 13.5 Mbps
Width                          : 1 920 pixels
Height                         : 1 080 pixels
Display aspect ratio           : 16:9
Frame rate mode                : Constant
Frame rate                     : 23.976 (24000/1001) fps
Color space                    : YUV
Chroma subsampling             : 4:2:0
Bit depth                      : 10 bits
Scan type                      : Progressive
Bits/(Pixel*Frame)             : 0.271
Stream size                    : 18.0 GiB (93%)
Default                        : Yes
Forced                         : No

Audio
ID                             : 2
Format                         : FLAC
Format/Info                    : Free Lossless Audio Codec
Codec ID                       : A_FLAC
Duration                       : 3h 10mn
Bit rate mode                  : Variable
Bit rate                       : 1 079 Kbps
Channel(s)                     : 2 channels
Channel positions              : Front: L R
Sampling rate                  : 48.0 KHz
Frame rate                     : 11.719 fps (4096 spf)
Bit depth                      : 16 bits
Stream size                    : 1.44 GiB (7%)
Writing library                : libFLAC 1.2.1 (UTC 2007-09-17)
Language                       : Japanese
Default                        : Yes
Forced                         : No

 

アニソン奇跡の夜~KING SUPER LIVE 2015~ 全47首+特典 BDrip 1080p Hi10P